Spider-Man: Homecom...

INFO : produkcja: USA premiera: 14 lipca 2017 (Polska) 28 czerwca 2017 (świat) reżyseria: Jon Watts scenariusz: John Francis Daley , Jonathan Goldstein , Jon Watts , Christopher Ford , Chris McKenna , Erik Sommers gatunek: Akcja , Sci-Fi OPIS : ...

pobierz torrent
 

Mroczna wieża - Th...

INFO : produkcja: USA premiera: 11 sierpnia 2017 (Polska) 27 lipca 2017 (świat) reżyseria: Nikolaj Arcel scenariusz: Nikolaj Arcel , Akiva Goldsman , Anders Thomas Jensen , Jeff Pinkner gatunek: Fantasy , Horror OPIS : Ostatni Rycerz, Roland De...

pobierz torrent
 

Transformers: Ostat...

INFO : produkcja: Chiny , Kanada , USA premiera: 23 czerwca 2017 (Polska) 18 czerwca 2017 (świat) reżyseria: Michael Bay scenariusz: Art Marcum , Matt Holloway , Ken Nolan gatunek: Akcja , Sci-Fi OPIS : "Transformers: Ostatni Rycerz" ...

pobierz torrent
An Ordinary Man *2017* [720P.WEB.DLAAC.X264] [ENTER1973] [NAPISY PL]

An Ordinary Man *2017* [720P.WEB.DLAAC.X264] [ENTER1973] [NAPISY PL]


Kategoria: FILMY / HD / x264

Zaakceptował: Aladyn1111
Liczba pobrań: 138
Ostatnia aktualizacja: 2017-10-05 03:00:24

Dodał: enter1973 Data: 05-10-2017 Komentarze: 1
Rozmiar: 2.01 GB format: HD / x264 Seed: 1Peer: 23
Info Obsada Opis Szczegóły Media
[info]
====================
Tytuł:............ An Ordinary Man
Ocena:............ IMDB – 5.1/10 (36)
Produkcja:........ USA
Gatunek:.......... Dramat, Thriller
Czas trwania:..... 90 min.
Premiera:......... 09.03.2017 – Świat
Reżyseria:........ Brad Silberling
Scenariusz:....... Brad Silberling



[opis]
====================

Ukrywający się zbrodniarz wojenny nawiązuje niebezpieczną relację z młodą dziewczyną, którą wynajął do sprzątania domu



[obsada]
====================

Ben Kingsley:..............The General
Hera Hilmar:...............Tanja
Peter Serafinowicz:........Miro
Robert Blythe:.............Grocer



[dane]
====================

Format : MPEG-4
Format profile : Base Media
Codec ID : isom (isom/iso2/avc1/mp41)
File size : 2.01 GiB
Duration : 1 h 30 min
Overall bit rate mode : Variable
Overall bit rate : 3 169 kb/s
Movie name : ENTER1973
Writing application : Lavf56.36.100

Video
ID : 1
Format : AVC
Format/Info : Advanced Video Codec
Format profile : Baseline@L1.3
Format settings, CABAC : No
Format settings, RefFrames : 2 frames
Codec ID : avc1
Codec ID/Info : Advanced Video Coding
Duration : 1 h 30 min
Bit rate : 3 000 kb/s
Width : 1 280 pixels
Height : 570 pixels
Display aspect ratio : 16:9
Original display aspect ratio : 16:9
Frame rate mode : Constant
Frame rate : 23.976 (24000/1001) FPS
Color space : YUV
Chroma subsampling : 4:2:0
Bit depth : 8 bits
Scan type : Progressive
Bits/(Pixel*Frame) : 0.171
Stream size : 1.90 GiB (95%)

Audio
ID : 2
Format : AAC
Format/Info : Advanced Audio Codec
Format profile : LC
Codec ID : 40
Duration : 1 h 30 min
Duration_LastFrame : -11 ms
Bit rate mode : Variable
Bit rate : 165 kb/s
Maximum bit rate : 192 kb/s
Channel(s) : 2 channels
Channel positions : Front: L R
Sampling rate : 48.0 kHz
Frame rate : 46.875 FPS (1024 SPF)
Compression mode : Lossy
Stream size : 107 MiB (5%)
Language : English
Default : Yes

SCREENY:
            

DETALE TORRENTA:[ Pokaż/Ukryj ]


wczytaj więcej torrentów
Copyright © 2015 All rights reserved Best-Torrents.net | Designed by Best-Torrents.net Torrenty są własnością użytkowników. Administrator serwisu nie może ponieść konsekwencji za to co użytkownicy wstawiają, lub za to co czynią na stronie. Nie możesz używać tego serwisu do rozpowszechniania lub ściągania materiałów do których nie masz odpowiednich praw lub licencji. Użytkownicy odpowiedzialni są za przestrzeganie tych zasad. PolicyDMCA